Wind Breaker | Circus Halligalli (0) | johnmexx
[Login] or [Signup]
Login
Username:
Password:
[Signup]
[Recover Account]


Poll


You must be logged in to view polls



Torrent Details For "Mahi NRI 2017 DVD Punjabi GOPISAHI"

Mahi NRI 2017 DVD Punjabi GOPISAHI

Download this torrent | Magnet Download
Health:
Seeds: 11
Leechers: 3
Completed: 1,604 
Last Checked: 16-10-2018 11:32:57
External Torrent
Update Stats
Download Magnet


Poster


iMDB
Imdb Picture Title: Mahi NRI
Year: 2017
Runtime: 137 minutes
Votes: 25
Rating: 8.2/10
Language: Panjabi, Panjabi
Country: UK
All Genres: Comedy, Drama
Plot Outline: Set primarily in the UK's second largest city Birmingham, Mera Mahi NRI (My Beloved Non-Resident Indian) is a realistic multi- cultural comedy drama that follows the life of a student '...
Director: Gaurav Bavdankar
Writing By: Gaurav Bavdankar,Gaurav Bavdankar,Amitosh Nagpal,Amarjit Singh,Mohinder Pratap Singh,Mohinder Pratap Singh,
Produced By: Ranbir Kaloya,Adib Malik,Bindi Sandhu,
Music: Arjunaa Harjai Arjunna Harjaie Inderpaul Wouhra
Cast:
Hardy Sandhu as Sherry - Yuvraj singh Siddhu
Poppy Jabbal as Reet
Rameet Kaur as Mandy
Gurpreet Ghuggi as Pammi
Navneet Nishan as Amrit Kaur
Kulvinder Ghir as Mr. Walia
Anjum Batra as Chokolingam
Ranjan Sehgal as Ahmed Ali Beaug
Lotty Allaric as Johnson's mother
Gopi Bhalla as Travel agent


Watch-Free-HD     Download

Details
Name:Mahi NRI 2017 DVD Punjabi GOPISAHI
Description:

Format                         : Matroska
Format version                 : Version 4 / Version 2
File size                      : 340 MiB
Duration                       : 1 h 59 min
Overall bit rate               : 398 kb/s
Movie name                     : Mahi NRI 2017 DVD Punjabi GOPISAHI

Video
Format                         : AVC
Codec ID                       : V_MPEG4/ISO/AVC
Duration                       : 1 h 59 min
Bit rate                       : 300 kb/s
Width                          : 690 pixels
Height                         : 396 pixels
Display aspect ratio           : 16:9
Frame rate mode                : Constant
Frame rate                     : 23.976 (24000/1001) FPS
Color space                    : YUV
Chroma subsampling             : 4:2:0
Bit depth                      : 8 bits
Scan type                      : Progressive
Bits/(Pixel*Frame)             : 0.046
Stream size                    : 256 MiB (75%)
Title                          : GOPISAHI
Writing library                : x264 core 155 r2893 b00bcaf
Language                       : Panjabi

Audio
Format                         : AAC
Duration                       : 1 h 59 min
Bit rate                       : 96.0 kb/s
Channel(s)                     : 2 channels
Channel positions              : Front: L R
Sampling rate                  : 44.1 kHz
Frame rate                     : 43.066 FPS (1024 SPF)
Compression mode               : Lossy
Delay relative to video        : -23 ms
Stream size                    : 82.1 MiB (24%)
Title                          : GOPISAHI
Language                       : Panjabi



Category:Movies > Punjabi
Lang:Punjabi
Total Size:339.73 MB
Info Hash:774255029b31940d1fe639a661b370812fee8f3b
Added By:gopisahi
Date Added:12-04-2018 05:19:56
Views:1,598
Hits:219

Download Torrent

Ratings:Not Yet Rated (Log in to rate it)


Tracker:
udp://9.rarbg.com:2740/announce


File List: 


Comments

No comments still posted

Powered by 10 Hamsters v2-svn -|- Page Generated In 0.592576 secs.
-|- RSS FEED
Theme By: Nikkbu